Transformers 3 Dark Moon (2011)
Download "Transformers 3 Dark Moon (2011)" [fast]

Transformers 3 Dark Moon (2011)
Transformers 3 Dark Moon (2011)

Stream size : 1.32 GiB (90%)
Writing library : DivX 2151n

Audio
ID : 1
Format : MPEG Audio
Format version : Version 1
Format profile : Layer 3
Codec ID : 55
Codec ID/Hint : MP3
Duration : 2h 34mn
Bit rate mode : Constant
Bit rate : 128 Kbps
Channel(s) : 2 channels
Sampling rate : 48.0 KHz
Resolution : 16 bits
Stream size : 141 MiB (9%)
Alignment : Aligned on interleaves
Interleave, duration : 33 ms (1.00 video frame)

Release notes...

Another quality release from IFLIX
More to come very soon!

Video source: Ours
Audio source: Ours

Greetings to all other groups out there. You all do awesome work and we greatly appreciate it.
IFLIX


Transformers 3 Dark Moon (2011)

http://www.wupload.com/file/141112845/Transformers_3_Dark_of_the_Moon_2011_PPVRIP_IFLIX_FateKiLLeR-W-home.rar



Download Transformers 3 Dark Moon (2011) rapidshare, mediafire, 4shared. Transformers 3 Dark Moon (2011) download free from our website.
5-09-2011, 17:08 / Author: duchvipoh1989 / Comments: 0 / Views: 453

Dear visitor, you went to the site as unregistered user.
We encourage you to register or enter the site under your name.
Add comments:

Transformers 3 Dark Moon (2011)
Information
Members of Guests cannot leave comments.


Top news:

animal sex free videos xxxvideo tube,8sex youtube8 Animal Sex waptrick sex videos mp4 telugu 2014 latest teachers se... sexyvideodownioad terzan sex tuve8 mardarsex thokomo sexindianmp4 sikwap xxx wet wap donload filem lesbi gratis 3gp WAPDAMSEX xdeis xxxseksf Sex18 sexyhdvidio animalshsex in xnxxx xxx video hd ma free xxx 2gp mobil wedvideos xxx janewar video below vidiobokeplesbian 3gp porn video Www xxxwap im